Details for this torrent 

DETECTIVE (MALAYALAM) [2007] ^^LTM^^
Type:
Video > Movies
Files:
3
Size:
886.59 MiB (929661539 Bytes)

Info:
IMDB

Uploaded:
2008-11-26 06:55:11 GMT
By:
L_T_M

Seeders:
0
Leechers:
2
Comments
1  

Info Hash:
 
2219E23A3CDCA68740FBD9746FF15F721E295DDF
picture




^^^^^^^^^^^^^^^^^^^^^^^^^^^^^^^^^^^^^^^^^^^^^^^^^^^^^^^^^^^^^^^^^^^^^^^
^^^^^^^^^^^^^^^^^^^^^^^^^^^^^^^^^^^^^^^^^^^^^^^^^^^^^^^^^^^^^^^^^^^^^^^
^^^^^^^^^^^^^^^^^^^^^^^^^^^^^^^^^^^^^^^^^^^^^^^^^^^^^^^^^^^^^^^^^^^^^^^
^^^^^^^^^^^^^^^^^^^^^^^^^^^^^^^^^^^^^^^^^^^^^^^^^^^^^^^^^^^^^^^^^^^^^^^
    _______________________________________________________________
   d888888888888888888888888888888888888888888888888888888888888888b
   Y888888888888888888888888888888888888888888888888888888888888888P
                                 8888
         __                      8888         __          __
        d88b                     8888        d88b_      _d88b
        8888                     8888        88888b_   d88888b
        8888                     8888        8888888b_d8888888
        8888                     8888        88888888888888888
        8888                     8888        8888Y8888888P8888
        8888                     8888        8888   Y888P 8888
        8888                     8888        8888         8888
        8888                     8888        8888         8888
        8888                     8888        8888         8888
        8888___________          8888        8888         8888
        888888888888888b         8888        8888         8888
        888888888888888P         8888        Y88P         Y88P
                                 8888
                                 d88b
                                 Y88P


^^^^^^^^^^^^^^^^^^^^^^^^^^^^^^^^^^^^^^^^^^^^^^^^^^^^^^^^^^^^^^^^^^^^^^^
^^^^^^^^^^^^^^^^^^^^^^^^^^^^^^^^^^^^^^^^^^^^^^^^^^^^^^^^^^^^^^^^^^^^^^^
^^^^^^^^^^^^^^^^^^^^^^^^^^^^^^^^^^^^^^^^^^^^^^^^^^^^^^^^^^^^^^^^^^^^^^^
^^^^^^^^^^^^^^^^^^^^^^^^^^^^^^^^^^^^^^^^^^^^^^^^^^^^^^^^^^^^^^^^^^^^^^^



DETECTIVE [2007] 


Director : Jithu Joseph

Writer : Jithu Joseph

Cast : Suresh Gopi,Jagathi Sreekumar,Sindhu Menon....

Presentation : Central

Uploader : ^^LTM^^

IMDB LINK : http://www.imdb.com/title/tt0972800/

IMDB RATE : 8.6
---------------------------------------------------------------------
GENERAL INFO 

Format                           : AVI
Format/Info                      : Audio Video Interleave
File size                        : 887 MiB
Duration                         : 2h 15mn
Overall bit rate                 : 917 Kbps
Writing library                  : TMPGEnc 4.0 XPress Version. 4.5.2.255

Video
Format                           : MPEG-4 Visual
Format settings, BVOP            : Yes
Format settings, QPel            : No
Format settings, GMC             : No warppoints
Format settings, Matrix          : Default
Muxing mode                      : Packed bitstream
Codec ID                         : DX50
Codec ID/Hint                    : DivX 5
Duration                         : 2h 15mn
Bit rate                         : 776 Kbps
Width                            : 444 pixels
Height                           : 204 pixels
Display aspect ratio             : 2.2
Frame rate                       : 25.000 fps
Resolution                       : 24 bits
Colorimetry                      : 4:2:0
Scan type                        : Progressive
Bits/(Pixel*Frame)               : 0.343
Stream size                      : 750 MiB (85%)
Writing library                  : DivX 2676

Audio
Format                           : MPEG Audio
Format version                   : Version 1
Format profile                   : Layer 3
Codec ID                         : 55
Codec ID/Hint                    : MP3
Duration                         : 2h 15mn
Bit rate mode                    : Constant
Bit rate                         : 128 Kbps
Channel(s)                       : 2 channels
Sampling rate                    : 48.0 KHz
Resolution                       : 16 bits
Stream size                      : 124 MiB (14%)
Alignment                        : Aligned on interleaves
Interleave, duration             : 40 ms (1.00 video frame)
Interleave, preload duration     : 384 ms

		

Comments

please seed