Details for this torrent 

Percy Jackson Sea of Monsters 2013 NEW SOURCE CAM XViD UNiQUE
Type:
Video > Movies
Files:
3
Size:
1.4 GiB (1504434515 Bytes)

Info:
IMDB
Spoken language(s):
English
Tag(s):
Percy Jackson Sea Monsters 2013

Uploaded:
2013-09-16 21:08:04 GMT
By:
xxxlavalxxx VIP

Seeders:
18
Leechers:
2
Comments
24  

Info Hash:
 
B79801D7CFD922FA83A489F23F987C524615F601
picture




 http://www.imdb.com/title/tt1854564/


In order to restore their dying safe haven, the son of Poseidon and his friends embark on a quest to the Sea of Monsters to find the mythical Golden Fleece while trying to stop an ancient evil from rising. 



Director:
 Thor Freudenthal 

Writers:
 Marc Guggenheim (screenplay), Rick Riordan (based upon the novel "Percy Jackson and the Olympians: The Sea of Monsters" written by) 

Stars:
 Logan Lerman, Alexandra Daddario, Brandon T. Jackson 

Genres:
  Adventure |  Family |  Fantasy 

Country:
 USA 

Language:
 English 



Format                                   : AVI
 Format/Info                              : Audio Video Interleave
 File size                                : 1.39 GiB
 Duration                                 : 1h 37mn
 Overall bit rate                         : 2 035 Kbps
 Writing application                      : VirtualDubMod 1.5.10.2 (build 2540/release)
 Writing library                          : VirtualDubMod build 2540/release

 Video
 ID                                       : 0
 Format                                   : MPEG-4 Visual
 Format profile                           : Advanced Simple@L5
 Format settings, BVOP                    : 2
 Format settings, QPel                    : No
 Format settings, GMC                     : No warppoints
 Format settings, Matrix                  : Default (H.263)
 Muxing mode                              : Packed bitstream
 Codec ID                                 : XVID
 Codec ID/Hint                            : XviD
 Duration                                 : 1h 37mn
 Bit rate                                 : 1 897 Kbps
 Width                                    : 720 pixels
 Height                                   : 294 pixels
 Display aspect ratio                     : 2.40:1
 Frame rate                               : 24.928 fps
 Color space                              : YUV
 Chroma subsampling                       : 4:2:0
 Bit depth                                : 8 bits
 Scan type                                : Progressive
 Compression mode                         : Lossy
 Bits/(Pixel*Frame)                       : 0.360
 Stream size                              : 1.29 GiB (93%)
 Writing library                          : XviD 64

 Audio
 ID                                       : 1
 Format                                   : MPEG Audio
 Format version                           : Version 2
 Format profile                           : Layer 3
 Codec ID                                 : 55
 Codec ID/Hint                            : MP3
 Duration                                 : 1h 37mn
 Bit rate mode                            : Constant
 Bit rate                                 : 128 Kbps
 Channel(s)                               : 2 channels
 Sampling rate                            : 24.0 KHz
 Compression mode                         : Lossy
 Stream size                              : 89.4 MiB (6%)
 Alignment                                : Aligned on interleaves
 Interleave, duration                     : 40 ms (1.00 video frame)
 Interleave, preload duration             : 504 ms
 Writing library                          : LAME3.98.4


Source Used   Percy.jackson.y.el.mar.de.los.monstruos.HDTS.RD   / KinGofJeffS - Thanks



 
http://bayimg.com/bApPBaAeJ 
http://bayimg.com/BAPpCaAeJ		

Comments

Thanks^^^
A=4,V=4.
a-4,v-5
@DILAN123 you scumbag traffic generated sites! hahaha! get the hell out a here!
Hey GUYS! this is ok, but I found a great deal elsewhere - its simple just go to ..
whatBS@evenmoreBS/bylosers.bs

FREE with every click:
Virus, Backdoor, Handcuffs
Oops, ignore the handcuffs that's for another window lol

MiniMovie : BootyInvasions
staring - shazia27 & maikers
v=5 a=3.5

watchable, but you can understand about 2 out of 6 words in every sentence
Try the above links in the comments, only if you are a noob or a dweeb. And, give them your credit card info too if you are really stupid.
"Si Eric, nagrereview."
a-4 v-6
the video isnt that bad actualy, very good for a cam but the audio not so good you can practicly understand like every 2nd word or so

but all for all its a nice one
This is being tracked by all ISPs
This is being tracked by all ISPs.