Details for this torrent 

Back.in.the.Game.S01E10.Ill.Slide.Home.for.Christmas.1080p.WEB-D
Type:
Video > HD - TV shows
Files:
1
Size:
809.34 MiB (848659660 Bytes)
Spoken language(s):
English
Texted language(s):
English
Uploaded:
2013-12-22 08:05:26 GMT
By:
azcom_
Seeders:
3
Leechers:
1
Comments
1  

Info Hash:
 
B86217DB8BCB74126A315AD31326A5AD43B88B30




General
Unique ID                      : 194295328874048346102741001099649356007 (0x922BEB5040B3469BA4F1BCDCD0DE10E7)
Complete name                  : Back.in.the.Game.S01E10.Ill.Slide.Home.for.Christmas.1080p.WEB-DL.DD5.1.H.264-NTb.mkv
Format                         : Matroska
Format version                 : Version 2
File size                      : 809 MiB
Duration                       : 20mn 45s
Overall bit rate               : 5 450 Kbps
Encoded date                   : UTC 2013-12-12 09:19:13
Writing application            : mkvmerge v5.8.0 ('No Sleep / Pillow') built on Sep  2 2012 15:37:04
Writing library                : libebml v1.2.3 + libmatroska v1.3.0

Video
ID                             : 1
Format                         : AVC
Format/Info                    : Advanced Video Codec
Format profile                 : [email protected]
Format settings, CABAC         : Yes
Format settings, ReFrames      : 4 frames
Codec ID                       : V_MPEG4/ISO/AVC
Duration                       : 20mn 45s
Bit rate                       : 4 957 Kbps
Width                          : 1 912 pixels
Height                         : 1 072 pixels
Display aspect ratio           : 16:9
Frame rate mode                : Constant
Frame rate                     : 23.976 fps
Color space                    : YUV
Chroma subsampling             : 4:2:0
Bit depth                      : 8 bits
Scan type                      : Progressive
Bits/(Pixel*Frame)             : 0.101
Stream size                    : 736 MiB (91%)
Language                       : English
Default                        : Yes
Forced                         : No
Color primaries                : BT.709
Transfer characteristics       : BT.709
Matrix coefficients            : BT.709

Audio
ID                             : 2
Format                         : AC-3
Format/Info                    : Audio Coding 3
Mode extension                 : CM (complete main)
Format settings, Endianness    : Big
Codec ID                       : A_AC3
Duration                       : 20mn 45s
Bit rate mode                  : Constant
Bit rate                       : 384 Kbps
Channel count                  : 6 channels
Channel positions              : Front: L C R, Side: L R, LFE
Sampling rate                  : 48.0 KHz
Bit depth                      : 16 bits
Compression mode               : Lossy
Stream size                    : 57.0 MiB (7%)
Language                       : English
Default                        : Yes
Forced                         : No

Text
ID                             : 3
Format                         : UTF-8
Codec ID                       : S_TEXT/UTF8
Codec ID/Info                  : UTF-8 Plain Text
Language                       : English
Default                        : Yes
Forced                         : No

		

Comments

Title only having WEB-D and not WEB-DL makes it not show in search for back in the game web-dl hence there is little activity on this torrent. Does the full title not fit??